  0
SECTION
  2
HEADER
  9
$ACADVER
  1
AC1014
  9
$ACADMAINTVER
 70
     0
  9
$DWGCODEPAGE
  3
ANSI_1253
  9
$INSBASE
 10
0.0
 20
0.0
 30
0.0
  9
$EXTMIN
 10
-5.265119
 20
-1.774965
 30
0.0
  9
$EXTMAX
 10
3.5
 20
12.212417
 30
0.0
  9
$LIMMIN
 10
0.0
 20
0.0
  9
$LIMMAX
 10
0.0
 20
0.0
  9
$ORTHOMODE
 70
     0
  9
$REGENMODE
 70
     1
  9
$FILLMODE
 70
     1
  9
$QTEXTMODE
 70
     0
  9
$MIRRTEXT
 70
     1
  9
$DRAGMODE
 70
     2
  9
$LTSCALE
 40
1.0
  9
$OSMODE
 70
     0
  9
$ATTMODE
 70
     1
  9
$TEXTSIZE
 40
0.2
  9
$TRACEWID
 40
0.05
  9
$TEXTSTYLE
  7
STANDARD
  9
$CLAYER
  8
0
  9
$CELTYPE
  6
CONTINUOUS
  9
$CECOLOR
 62
   256
  9
$CELTSCALE
 40
1.0
  9
$DELOBJ
 70
     1
  9
$DISPSILH
 70
     0
  9
$DIMSCALE
 40
1.0
  9
$DIMASZ
 40
0.18
  9
$DIMEXO
 40
0.0625
  9
$DIMDLI
 40
0.38
  9
$DIMRND
 40
0.0
  9
$DIMDLE
 40
0.0
  9
$DIMEXE
 40
0.18
  9
$DIMTP
 40
0.0
  9
$DIMTM
 40
0.0
  9
$DIMTXT
 40
0.18
  9
$DIMCEN
 40
0.09
  9
$DIMTSZ
 40
0.0
  9
$DIMTOL
 70
     0
  9
$DIMLIM
 70
     0
  9
$DIMTIH
 70
     1
  9
$DIMTOH
 70
     1
  9
$DIMSE1
 70
     0
  9
$DIMSE2
 70
     0
  9
$DIMTAD
 70
     0
  9
$DIMZIN
 70
     0
  9
$DIMBLK
  1

  9
$DIMASO
 70
     1
  9
$DIMSHO
 70
     1
  9
$DIMPOST
  1

  9
$DIMAPOST
  1

  9
$DIMALT
 70
     0
  9
$DIMALTD
 70
     2
  9
$DIMALTF
 40
25.4
  9
$DIMLFAC
 40
1.0
  9
$DIMTOFL
 70
     0
  9
$DIMTVP
 40
0.0
  9
$DIMTIX
 70
     0
  9
$DIMSOXD
 70
     0
  9
$DIMSAH
 70
     0
  9
$DIMBLK1
  1

  9
$DIMBLK2
  1

  9
$DIMSTYLE
  2
STANDARD
  9
$DIMCLRD
 70
     0
  9
$DIMCLRE
 70
     0
  9
$DIMCLRT
 70
     0
  9
$DIMTFAC
 40
1.0
  9
$DIMGAP
 40
0.09
  9
$DIMJUST
 70
     0
  9
$DIMSD1
 70
     0
  9
$DIMSD2
 70
     0
  9
$DIMTOLJ
 70
     1
  9
$DIMTZIN
 70
     0
  9
$DIMALTZ
 70
     0
  9
$DIMALTTZ
 70
     0
  9
$DIMFIT
 70
     3
  9
$DIMUPT
 70
     0
  9
$DIMUNIT
 70
     2
  9
$DIMDEC
 70
     4
  9
$DIMTDEC
 70
     4
  9
$DIMALTU
 70
     2
  9
$DIMALTTD
 70
     2
  9
$DIMTXSTY
  7
STANDARD
  9
$DIMAUNIT
 70
     0
  9
$LUNITS
 70
     2
  9
$LUPREC
 70
     4
  9
$SKETCHINC
 40
0.1
  9
$FILLETRAD
 40
0.0
  9
$AUNITS
 70
     0
  9
$AUPREC
 70
     0
  9
$MENU
  1
acad
  9
$ELEVATION
 40
0.0
  9
$PELEVATION
 40
0.0
  9
$THICKNESS
 40
0.0
  9
$LIMCHECK
 70
     0
  9
$BLIPMODE
 70
     1
  9
$CHAMFERA
 40
0.0
  9
$CHAMFERB
 40
0.0
  9
$CHAMFERC
 40
0.0
  9
$CHAMFERD
 40
0.0
  9
$SKPOLY
 70
     0
  9
$TDCREATE
 40
0.000000000
  9
$TDUPDATE
 40
0.000000000
  9
$TDINDWG
 40
0.0000000000
  9
$TDUSRTIMER
 40
0.0000000000
  9
$USRTIMER
 70
     1
  9
$ANGBASE
 50
0.0
  9
$ANGDIR
 70
     0
  9
$PDMODE
 70
     2
  9
$PDSIZE
 40
0.0
  9
$PLINEWID
 40
0.0
  9
$COORDS
 70
     0
  9
$SPLFRAME
 70
     0
  9
$SPLINETYPE
 70
     6
  9
$SPLINESEGS
 70
     8
  9
$ATTDIA
 70
     0
  9
$ATTREQ
 70
     1
  9
$HANDLING
 70
     1
  9
$HANDSEED
  5
11E
  9
$SURFTAB1
 70
     6
  9
$SURFTAB2
 70
     6
  9
$SURFTYPE
 70
     6
  9
$SURFU
 70
     6
  9
$SURFV
 70
     6
  9
$UCSNAME
  2

  9
$UCSORG
 10
0.0
 20
0.0
 30
0.0
  9
$UCSXDIR
 10
1.0
 20
0.0
 30
0.0
  9
$UCSYDIR
 10
0.0
 20
1.0
 30
0.0
  9
$PUCSNAME
  2

  9
$PUCSORG
 10
0.0
 20
0.0
 30
0.0
  9
$PUCSXDIR
 10
1.0
 20
0.0
 30
0.0
  9
$PUCSYDIR
 10
0.0
 20
1.0
 30
0.0
  9
$USERI1
 70
     0
  9
$USERI2
 70
     0
  9
$USERI3
 70
     0
  9
$USERI4
 70
     0
  9
$USERI5
 70
     0
  9
$USERR1
 40
0.0
  9
$USERR2
 40
0.0
  9
$USERR3
 40
0.0
  9
$USERR4
 40
0.0
  9
$USERR5
 40
0.0
  9
$WORLDVIEW
 70
     1
  9
$SHADEDGE
 70
     3
  9
$SHADEDIF
 70
    70
  9
$TILEMODE
 70
     1
  9
$MAXACTVP
 70
    16
  9
$PINSBASE
 10
0.0
 20
0.0
 30
0.0
  9
$PLIMCHECK
 70
     0
  9
$PEXTMIN
 10
1.000000E+20
 20
1.000000E+20
 30
1.000000E+20
  9
$PEXTMAX
 10
-1.000000E+20
 20
-1.000000E+20
 30
-1.000000E+20
  9
$PLIMMIN
 10
0.0
 20
0.0
  9
$PLIMMAX
 10
12.0
 20
9.0
  9
$UNITMODE
 70
     0
  9
$VISRETAIN
 70
     0
  9
$PLINEGEN
 70
     1
  9
$PSLTSCALE
 70
     0
  9
$TREEDEPTH
 70
  3020
  9
$PICKSTYLE
 70
     1
  9
$CMLSTYLE
  2
STANDARD
  9
$CMLJUST
 70
     0
  9
$CMLSCALE
 40
1.0
  9
$PROXYGRAPHICS
 70
     0
  9
$MEASUREMENT
 70
     0
  0
ENDSEC
  0
SECTION
  2
CLASSES
  0
CLASS
  1
LWPOLYLINE
  2
AcDbPolyline
  3
"AutoCAD"
 90
        0
280
     0
281
     1
  0
CLASS
  1
IMAGE
  2
AcDbRasterImage
  3
ISM
 90
      127
280
     0
281
     1
  0
CLASS
  1
OLE2FRAME
  2
AcDbOle2Frame
  3
""
 90
        0
280
     0
281
     1
  0
CLASS
  1
HATCH
  2
AcDbHatch
  3
"ACAD_SEDONA"
 90
        0
280
     0
281
     1
  0
CLASS
  1
DICTIONARYVAR
  2
AcDbDictionaryVar
  3
"AutoCAD"
 90
        0
280
     0
281
     0
  0
CLASS
  1
RASTERVARIABLES
  2
AcDbRasterVariables
  3
ISM
 90
        0
280
     0
281
     0
  0
CLASS
  1
IMAGEDEF
  2
AcDbRasterImageDef
  3
ISM
 90
        0
280
     0
281
     0
  0
CLASS
  1
IMAGEDEF_REACTOR
  2
AcDbRasterImageDefReactor
  3
ISM
 90
        1
280
     0
281
     0
  0
CLASS
  1
IDBUFFER
  2
AcDbIdBuffer
  3
"Acad"
 90
        0
280
     0
281
     0
  0
CLASS
  1
SPATIAL_FILTER
  2
AcDbSpatialFilter
  3
"Acad"
 90
        0
280
     0
281
     0
  0
CLASS
  1
XRECORD
  2
AcDbXrecord
  3
"<Built In>"
 90
        0
280
     0
281
     0
  0
CLASS
  1
SORTENTSTABLE
  2
AcDbSortentsTable
  3
"AutoCAD"
 90
        0
280
     0
281
     0
  0
CLASS
  1
LAYER_INDEX
  2
AcDbLayerIndex
  3
"Acad"
 90
        0
280
     0
281
     0
  0
CLASS
  1
SPATIAL_INDEX
  2
AcDbSpatialIndex
  3
"Acad"
 90
        0
280
     0
281
     0
  0
CLASS
  1
OBJECT_PTR
  2
CAseDLPNTableRecord
  3
"ASE-LPNTableRecord"
 90
        1
280
     0
281
     0
  0
CLASS
  1
LAYOUT
  2
AcDbLayout
  3
"AutoCAD 2000"
 90
        1
280
     0
281
     0
  0
CLASS
  1
PLOTSETTINGS
  2
AcDbPlotSettings
  3
"AutoCAD 2000"
 90
        1
280
     0
281
     0
  0
CLASS
  1
ACDBDICTIONARYWDFLT
  2
AcDbDictionaryWithDefault
  3
"AutoCAD 2000"
 90
        1
280
     0
281
     0
  0
CLASS
  1
ACDBPLACEHOLDER
  2
AcDbPlaceHolder
  3
"AutoCAD 2000"
 90
        1
280
     0
281
     0
  0
CLASS
  1
VBA_PROJECT
  2
AcDbVbaProject
  3
"acadvba"
 90
        1
280
     0
281
     0
  0
CLASS
  1
WIPEOUT
  2
AcDbWipeout
  3
WipeOut|AutoCAD Express Tool|expresstools@autodesk.com
 90
      127
280
     0
281
     1
  0
CLASS
  1
WIPEOUTVARIABLES
  2
AcDbWipeoutVariables
  3
WipeOut|AutoCAD Express Tool|expresstools@autodesk.com
 90
        0
280
     0
281
     0
  0
CLASS
  1
RTEXT
  2
RText
  3
RText|AutoCAD Express Tool|expresstools@autodesk.com
 90
        0
280
     0
281
     1
  0
CLASS
  1
ARCALIGNEDTEXT
  2
AcDbArcAlignedText
  3
ATEXT|AutoCAD Express Tool|expresstools@autodesk.com
 90
        0
280
     0
281
     1
  0
ENDSEC
  0
SECTION
  2
TABLES
  0
TABLE
  2
VPORT
  5
7
100
AcDbSymbolTable
 70
     2
  0
VPORT
  5
15
100
AcDbSymbolTableRecord
100
AcDbViewportTableRecord
  2
*ACTIVE
 70
     0
 10
0.0
 20
0.0
 11
1.0
 21
1.0
 12
6.591288
 22
4.579184
 13
0.0
 23
0.0
 14
1.0
 24
1.0
 15
0.0
 25
0.0
 16
0.0
 26
0.0
 36
1.0
 17
0.0
 27
0.0
 37
0.0
 40
9.158369
 41
0.688564
 42
50.0
 43
0.0
 44
0.0
 50
0.0
 51
0.0
 71
     0
 72
   100
 73
     1
 74
     1
 75
     0
 76
     0
 77
     0
 78
     0
  0
VPORT
  5
111
100
AcDbSymbolTableRecord
100
AcDbViewportTableRecord
  2
MYVPORT
 70
     0
 10
0.0
 20
0.0
 11
1.0
 21
1.0
 12
6.21
 22
9.02
 13
0.0
 23
0.0
 14
1.0
 24
1.0
 15
0.0
 25
0.0
 16
0.0
 26
0.0
 36
1.0
 17
0.0
 27
0.0
 37
0.0
 40
18.04
 41
0.688564
 42
50.0
 43
0.0
 44
0.0
 50
0.0
 51
0.0
 71
     0
 72
   100
 73
     1
 74
     1
 75
     0
 76
     0
 77
     0
 78
     0
  0
ENDTAB
  0
TABLE
  2
LTYPE
  5
4
100
AcDbSymbolTable
 70
     4
  0
LTYPE
  5
11
100
AcDbSymbolTableRecord
100
AcDbLinetypeTableRecord
  2
BYBLOCK
 70
    64
  3

 72
    65
 73
     0
 40
0.0
  0
LTYPE
  5
12
100
AcDbSymbolTableRecord
100
AcDbLinetypeTableRecord
  2
BYLAYER
 70
    64
  3

 72
    65
 73
     0
 40
0.0
  0
LTYPE
  5
13
100
AcDbSymbolTableRecord
100
AcDbLinetypeTableRecord
  2
CONTINUOUS
 70
    64
  3
Solid line
 72
    65
 73
     0
 40
0.0
  0
LTYPE
  5
26
100
AcDbSymbolTableRecord
100
AcDbLinetypeTableRecord
  2
SOLID
 70
    64
  3
Visual CADD Translation
 72
    65
 73
     2
 40
1.0
 49
1.0
 74
     0
 49
0.0
 74
     0
  0
ENDTAB
  0
TABLE
  2
LAYER
  5
2
100
AcDbSymbolTable
 70
     3
  0
LAYER
  5
14
100
AcDbSymbolTableRecord
100
AcDbLayerTableRecord
  2
0
 70
     0
 62
     7
  6
CONTINUOUS
  0
LAYER
  5
27
100
AcDbSymbolTableRecord
100
AcDbLayerTableRecord
  2
LAYER-0
 70
     0
 62
    12
  6
CONTINUOUS
  0
LAYER
  5
28
100
AcDbSymbolTableRecord
100
AcDbLayerTableRecord
  2
LAYER-2
 70
     0
 62
    12
  6
CONTINUOUS
  0
ENDTAB
  0
TABLE
  2
STYLE
  5
3
100
AcDbSymbolTable
 70
     2
  0
STYLE
  5
17
100
AcDbSymbolTableRecord
100
AcDbTextStyleTableRecord
  2
STANDARD
 70
     0
 40
0.0
 41
1.0
 50
0.0
 71
     0
 42
0.0
  3
txt
  4

  0
STYLE
  5
24
100
AcDbSymbolTableRecord
100
AcDbTextStyleTableRecord
  2
VCADD_ARIAL
 70
     0
 40
0.0
 41
1.0
 50
0.0
 71
     0
 42
0.0
  3
Arial
  4

  0
ENDTAB
  0
TABLE
  2
VIEW
  5
5
100
AcDbSymbolTable
 70
     0
  0
ENDTAB
  0
TABLE
  2
UCS
  5
6
100
AcDbSymbolTable
 70
     1
  0
UCS
  5
110
100
AcDbSymbolTableRecord
100
AcDbUCSTableRecord
  2
MYUCS
 70
     0
 10
0.0
 20
0.0
 30
0.0
 11
0.0
 21
1.0
 31
0.0
 12
0.0
 22
0.0
 32
1.0
  0
ENDTAB
  0
TABLE
  2
APPID
  5
8
100
AcDbSymbolTable
 70
     1
  0
APPID
  5
16
100
AcDbSymbolTableRecord
100
AcDbRegAppTableRecord
  2
ACAD
 70
     0
  0
ENDTAB
  0
TABLE
  2
DIMSTYLE
  5
9
100
AcDbSymbolTable
 70
     2
  0
DIMSTYLE
105
18
100
AcDbSymbolTableRecord
100
AcDbDimStyleTableRecord
  2
STANDARD
 70
     0
  3

  4

  5

  6

  7

 40
1.0
 41
0.18
 42
0.0625
 43
0.38
 44
0.18
 45
0.0
 46
0.0
 47
0.0
 48
0.0
 71
     0
 72
     0
 73
     1
 74
     1
 75
     0
 76
     0
 77
     0
 78
     0
140
0.18
141
0.09
142
0.0
143
25.4
144
1.0
145
0.0
146
1.0
147
0.09
170
     0
171
     2
172
     0
173
     0
174
     0
175
     0
176
     0
177
     0
178
     0
270
     2
271
     4
272
     4
273
     2
274
     2
275
     0
280
     0
281
     0
282
     0
283
     1
284
     0
285
     0
286
     0
287
     0
288
     0
340
17
  0
DIMSTYLE
105
25
100
AcDbSymbolTableRecord
100
AcDbDimStyleTableRecord
  2
VCADD_DIMSTYLE
 70
     0
  3

  4

  5

  6

  7

 40
1.0
 41
0.5
 42
0.0
 43
0.0
 44
0.197
 45
0.0
 46
0.0
 47
1.833
 48
2.6543
 71
     0
 72
     0
 73
     1
 74
     1
 75
     0
 76
     0
 77
     0
 78
     0
140
0.25
141
0.0
142
0.0
143
25.4
144
1.0
145
0.0
146
0.25
147
0.1
170
     0
171
     4
172
     0
173
     0
174
     1
175
     0
176
    12
177
    12
178
    12
270
     2
271
     4
272
     4
273
     2
274
     2
275
     0
280
     0
281
     0
282
     0
283
     1
284
     0
285
     0
286
     0
287
     0
288
     0
340
24
  0
ENDTAB
  0
TABLE
  2
BLOCK_RECORD
  5
1
100
AcDbSymbolTable
 70
     3
  0
BLOCK_RECORD
  5
A
100
AcDbSymbolTableRecord
100
AcDbBlockTableRecord
  2
*MODEL_SPACE
  0
BLOCK_RECORD
  5
B
100
AcDbSymbolTableRecord
100
AcDbBlockTableRecord
  2
*PAPER_SPACE
  0
BLOCK_RECORD
  5
1D
100
AcDbSymbolTableRecord
100
AcDbBlockTableRecord
  2
_CLOSED
  0
BLOCK_RECORD
  5
2A
100
AcDbSymbolTableRecord
100
AcDbBlockTableRecord
  2
TARGET
  0
BLOCK_RECORD
  5
2B
100
AcDbSymbolTableRecord
100
AcDbBlockTableRecord
  2
*D2
  0
ENDTAB
  0
ENDSEC
  0
SECTION
  2
BLOCKS
  0
BLOCK
  5
D
100
AcDbEntity
  8
0
100
AcDbBlockBegin
  2
*MODEL_SPACE
 70
     0
 10
0.0
 20
0.0
 30
0.0
  3
*MODEL_SPACE
  1

  0
ENDBLK
  5
E
100
AcDbEntity
  8
0
100
AcDbBlockEnd
  0
BLOCK
  5
F
100
AcDbEntity
 67
     1
  8
0
100
AcDbBlockBegin
  2
*PAPER_SPACE
 70
     0
 10
0.0
 20
0.0
 30
0.0
  3
*PAPER_SPACE
  1

  0
ENDBLK
  5
10
100
AcDbEntity
 67
     1
  8
0
100
AcDbBlockEnd
  0
BLOCK
  5
1E
100
AcDbEntity
  8
0
100
AcDbBlockBegin
  2
_CLOSED
 70
     0
 10
0.0
 20
0.0
 30
0.0
  3
_CLOSED
  1

  0
LINE
  5
1F
100
AcDbEntity
  8
0
100
AcDbLine
 10
-1.0
 20
0.166667
 30
0.0
 11
0.0
 21
0.0
 31
0.0
  0
LINE
  5
20
100
AcDbEntity
  8
0
100
AcDbLine
 10
0.0
 20
0.0
 30
0.0
 11
-1.0
 21
-0.166667
 31
0.0
  0
LINE
  5
21
100
AcDbEntity
  8
0
100
AcDbLine
 10
-1.0
 20
0.166667
 30
0.0
 11
-1.0
 21
-0.166667
 31
0.0
  0
LINE
  5
22
100
AcDbEntity
  8
0
100
AcDbLine
 10
0.0
 20
0.0
 30
0.0
 11
-1.0
 21
0.0
 31
0.0
  0
ENDBLK
  5
23
100
AcDbEntity
  8
0
100
AcDbBlockEnd
  0
BLOCK
  5
112
100
AcDbEntity
  8
0
100
AcDbBlockBegin
  2
TARGET
 70
     0
 10
0.0
 20
0.0
 30
0.0
  3
TARGET
  1

  0
CIRCLE
  5
113
100
AcDbEntity
  8
LAYER-0
  6
CONTINUOUS
 62
    12
100
AcDbCircle
 10
0.0
 20
0.0
 30
0.0
 40
0.5
  0
LINE
  5
114
100
AcDbEntity
  8
LAYER-0
  6
CONTINUOUS
 62
    12
100
AcDbLine
 10
0.0
 20
0.5
 30
0.0
 11
0.0
 21
-0.5
 31
0.0
  0
LINE
  5
115
100
AcDbEntity
  8
LAYER-0
  6
CONTINUOUS
 62
    12
100
AcDbLine
 10
0.5
 20
0.0
 30
0.0
 11
-0.5
 21
0.0
 31
0.0
  0
ENDBLK
  5
116
100
AcDbEntity
  8
0
100
AcDbBlockEnd
  0
BLOCK
  5
117
100
AcDbEntity
  8
0
100
AcDbBlockBegin
  2
*D2
 70
     1
 10
0.0
 20
0.0
 30
0.0
  3
*D2
  1

  0
LINE
  5
118
100
AcDbEntity
  8
LAYER-0
  6
CONTINUOUS
 62
    12
100
AcDbLine
 10
-1.25
 20
0.5
 30
0.0
 11
-1.053
 21
0.5
 31
0.0
  0
LINE
  5
119
100
AcDbEntity
  8
LAYER-0
  6
CONTINUOUS
 62
    12
100
AcDbLine
 10
-1.25
 20
7.75
 30
0.0
 11
-1.053
 21
7.75
 31
0.0
  0
TEXT
  5
11A
100
AcDbEntity
  8
LAYER-0
  6
CONTINUOUS
 62
    12
100
AcDbText
 10
-1.59996
 20
3.944823
 30
0.0
 40
0.25
  1
7 1/4"
  7
VCADD_ARIAL
100
AcDbText
  0
LINE
  5
11B
100
AcDbEntity
  8
LAYER-0
  6
CONTINUOUS
 62
    12
100
AcDbLine
 10
-1.25
 20
0.5
 30
0.0
 11
-1.25
 21
3.844823
 31
0.0
  0
LINE
  5
11C
100
AcDbEntity
  8
LAYER-0
  6
CONTINUOUS
 62
    12
100
AcDbLine
 10
-1.25
 20
4.405177
 30
0.0
 11
-1.25
 21
7.75
 31
0.0
  0
ENDBLK
  5
11D
100
AcDbEntity
  8
0
100
AcDbBlockEnd
  0
ENDSEC
  0
SECTION
  2
ENTITIES
  0
VIEWPORT
  5
29
100
AcDbEntity
 67
     1
  8
0
  6
CONTINUOUS
 62
     0
100
AcDbViewport
 10
4.5
 20
3.259162
 30
0.0
 40
12.857143
 41
9.311892
 68
     1
 69
     1
1001
ACAD
1000
MVIEW
1002
{
1070
    16
1010
0.0
1020
0.0
1030
0.0
1010
0.0
1020
0.0
1030
1.0
1040
0.0
1040
1084.5
1040
762.9316
1040
546.5183
1040
50.0
1040
-55.0
1040
-55.0
1070
     0
1070
   500
1070
     0
1070
     0
1070
     0
1070
     0
1070
     0
1070
     0
1040
0.0
1040
1169.457242
1040
377.488
1040
0.5
1040
0.5
1040
12.0
1040
12.0
1070
     0
1002
{
1002
}
1002
}
  0
POLYLINE
  5
2C
100
AcDbEntity
  8
LAYER-2
  6
CONTINUOUS
 62
     8
100
AcDb2dPolyline
 66
     1
 10
0.0
 20
0.0
 30
0.0
 70
   132
  0
VERTEX
  5
2D
100
AcDbEntity
  8
LAYER-2
  6
CONTINUOUS
 62
     8
100
AcDbVertex
100
AcDb2dVertex
 10
1.0
 20
0.0
 30
0.0
  0
VERTEX
  5
2E
100
AcDbEntity
  8
LAYER-2
  6
CONTINUOUS
 62
     8
100
AcDbVertex
100
AcDb2dVertex
 10
0.898325
 20
0.129702
 30
0.0
 70
     8
  0
VERTEX
  5
2F
100
AcDbEntity
  8
LAYER-2
  6
CONTINUOUS
 62
     8
100
AcDbVertex
100
AcDb2dVertex
 10
0.793435
 20
0.258832
 30
0.0
 70
     8
  0
VERTEX
  5
30
100
AcDbEntity
  8
LAYER-2
  6
CONTINUOUS
 62
     8
100
AcDbVertex
100
AcDb2dVertex
 10
0.685537
 20
0.387428
 30
0.0
 70
     8
  0
VERTEX
  5
31
100
AcDbEntity
  8
LAYER-2
  6
CONTINUOUS
 62
     8
100
AcDbVertex
100
AcDb2dVertex
 10
0.574835
 20
0.515524
 30
0.0
 70
     8
  0
VERTEX
  5
32
100
AcDbEntity
  8
LAYER-2
  6
CONTINUOUS
 62
     8
100
AcDbVertex
100
AcDb2dVertex
 10
0.461534
 20
0.643159
 30
0.0
 70
     8
  0
VERTEX
  5
33
100
AcDbEntity
  8
LAYER-2
  6
CONTINUOUS
 62
     8
100
AcDbVertex
100
AcDb2dVertex
 10
0.34584
 20
0.770368
 30
0.0
 70
     8
  0
VERTEX
  5
34
100
AcDbEntity
  8
LAYER-2
  6
CONTINUOUS
 62
     8
100
AcDbVertex
100
AcDb2dVertex
 10
0.227958
 20
0.897188
 30
0.0
 70
     8
  0
VERTEX
  5
35
100
AcDbEntity
  8
LAYER-2
  6
CONTINUOUS
 62
     8
100
AcDbVertex
100
AcDb2dVertex
 10
0.108092
 20
1.023655
 30
0.0
 70
     8
  0
VERTEX
  5
36
100
AcDbEntity
  8
LAYER-2
  6
CONTINUOUS
 62
     8
100
AcDbVertex
100
AcDb2dVertex
 10
-0.013551
 20
1.149805
 30
0.0
 70
     8
  0
VERTEX
  5
37
100
AcDbEntity
  8
LAYER-2
  6
CONTINUOUS
 62
     8
100
AcDbVertex
100
AcDb2dVertex
 10
-0.136768
 20
1.275677
 30
0.0
 70
     8
  0
VERTEX
  5
38
100
AcDbEntity
  8
LAYER-2
  6
CONTINUOUS
 62
     8
100
AcDbVertex
100
AcDb2dVertex
 10
-0.261352
 20
1.401304
 30
0.0
 70
     8
  0
VERTEX
  5
39
100
AcDbEntity
  8
LAYER-2
  6
CONTINUOUS
 62
     8
100
AcDbVertex
100
AcDb2dVertex
 10
-0.387098
 20
1.526726
 30
0.0
 70
     8
  0
VERTEX
  5
3A
100
AcDbEntity
  8
LAYER-2
  6
CONTINUOUS
 62
     8
100
AcDbVertex
100
AcDb2dVertex
 10
-0.513802
 20
1.651976
 30
0.0
 70
     8
  0
VERTEX
  5
3B
100
AcDbEntity
  8
LAYER-2
  6
CONTINUOUS
 62
     8
100
AcDbVertex
100
AcDb2dVertex
 10
-0.641258
 20
1.777094
 30
0.0
 70
     8
  0
VERTEX
  5
3C
100
AcDbEntity
  8
LAYER-2
  6
CONTINUOUS
 62
     8
100
AcDbVertex
100
AcDb2dVertex
 10
-0.769261
 20
1.902113
 30
0.0
 70
     8
  0
VERTEX
  5
3D
100
AcDbEntity
  8
LAYER-2
  6
CONTINUOUS
 62
     8
100
AcDbVertex
100
AcDb2dVertex
 10
-0.897606
 20
2.027072
 30
0.0
 70
     8
  0
VERTEX
  5
3E
100
AcDbEntity
  8
LAYER-2
  6
CONTINUOUS
 62
     8
100
AcDbVertex
100
AcDb2dVertex
 10
-1.026088
 20
2.152007
 30
0.0
 70
     8
  0
VERTEX
  5
3F
100
AcDbEntity
  8
LAYER-2
  6
CONTINUOUS
 62
     8
100
AcDbVertex
100
AcDb2dVertex
 10
-1.154502
 20
2.276954
 30
0.0
 70
     8
  0
VERTEX
  5
40
100
AcDbEntity
  8
LAYER-2
  6
CONTINUOUS
 62
     8
100
AcDbVertex
100
AcDb2dVertex
 10
-1.282642
 20
2.401949
 30
0.0
 70
     8
  0
VERTEX
  5
41
100
AcDbEntity
  8
LAYER-2
  6
CONTINUOUS
 62
     8
100
AcDbVertex
100
AcDb2dVertex
 10
-1.410303
 20
2.52703
 30
0.0
 70
     8
  0
VERTEX
  5
42
100
AcDbEntity
  8
LAYER-2
  6
CONTINUOUS
 62
     8
100
AcDbVertex
100
AcDb2dVertex
 10
-1.53728
 20
2.652232
 30
0.0
 70
     8
  0
VERTEX
  5
43
100
AcDbEntity
  8
LAYER-2
  6
CONTINUOUS
 62
     8
100
AcDbVertex
100
AcDb2dVertex
 10
-1.663369
 20
2.777592
 30
0.0
 70
     8
  0
VERTEX
  5
44
100
AcDbEntity
  8
LAYER-2
  6
CONTINUOUS
 62
     8
100
AcDbVertex
100
AcDb2dVertex
 10
-1.788363
 20
2.903147
 30
0.0
 70
     8
  0
VERTEX
  5
45
100
AcDbEntity
  8
LAYER-2
  6
CONTINUOUS
 62
     8
100
AcDbVertex
100
AcDb2dVertex
 10
-1.912058
 20
3.028933
 30
0.0
 70
     8
  0
VERTEX
  5
46
100
AcDbEntity
  8
LAYER-2
  6
CONTINUOUS
 62
     8
100
AcDbVertex
100
AcDb2dVertex
 10
-2.034249
 20
3.154987
 30
0.0
 70
     8
  0
VERTEX
  5
47
100
AcDbEntity
  8
LAYER-2
  6
CONTINUOUS
 62
     8
100
AcDbVertex
100
AcDb2dVertex
 10
-2.15473
 20
3.281344
 30
0.0
 70
     8
  0
VERTEX
  5
48
100
AcDbEntity
  8
LAYER-2
  6
CONTINUOUS
 62
     8
100
AcDbVertex
100
AcDb2dVertex
 10
-2.273296
 20
3.408042
 30
0.0
 70
     8
  0
VERTEX
  5
49
100
AcDbEntity
  8
LAYER-2
  6
CONTINUOUS
 62
     8
100
AcDbVertex
100
AcDb2dVertex
 10
-2.389742
 20
3.535117
 30
0.0
 70
     8
  0
VERTEX
  5
4A
100
AcDbEntity
  8
LAYER-2
  6
CONTINUOUS
 62
     8
100
AcDbVertex
100
AcDb2dVertex
 10
-2.503863
 20
3.662606
 30
0.0
 70
     8
  0
VERTEX
  5
4B
100
AcDbEntity
  8
LAYER-2
  6
CONTINUOUS
 62
     8
100
AcDbVertex
100
AcDb2dVertex
 10
-2.615454
 20
3.790545
 30
0.0
 70
     8
  0
VERTEX
  5
4C
100
AcDbEntity
  8
LAYER-2
  6
CONTINUOUS
 62
     8
100
AcDbVertex
100
AcDb2dVertex
 10
-2.72431
 20
3.91897
 30
0.0
 70
     8
  0
VERTEX
  5
4D
100
AcDbEntity
  8
LAYER-2
  6
CONTINUOUS
 62
     8
100
AcDbVertex
100
AcDb2dVertex
 10
-2.830225
 20
4.047918
 30
0.0
 70
     8
  0
VERTEX
  5
4E
100
AcDbEntity
  8
LAYER-2
  6
CONTINUOUS
 62
     8
100
AcDbVertex
100
AcDb2dVertex
 10
-2.932995
 20
4.177425
 30
0.0
 70
     8
  0
VERTEX
  5
4F
100
AcDbEntity
  8
LAYER-2
  6
CONTINUOUS
 62
     8
100
AcDbVertex
100
AcDb2dVertex
 10
-3.032414
 20
4.307529
 30
0.0
 70
     8
  0
VERTEX
  5
50
100
AcDbEntity
  8
LAYER-2
  6
CONTINUOUS
 62
     8
100
AcDbVertex
100
AcDb2dVertex
 10
-3.128276
 20
4.438264
 30
0.0
 70
     8
  0
VERTEX
  5
51
100
AcDbEntity
  8
LAYER-2
  6
CONTINUOUS
 62
     8
100
AcDbVertex
100
AcDb2dVertex
 10
-3.220378
 20
4.569669
 30
0.0
 70
     8
  0
VERTEX
  5
52
100
AcDbEntity
  8
LAYER-2
  6
CONTINUOUS
 62
     8
100
AcDbVertex
100
AcDb2dVertex
 10
-3.308514
 20
4.701779
 30
0.0
 70
     8
  0
VERTEX
  5
53
100
AcDbEntity
  8
LAYER-2
  6
CONTINUOUS
 62
     8
100
AcDbVertex
100
AcDb2dVertex
 10
-3.392477
 20
4.834631
 30
0.0
 70
     8
  0
VERTEX
  5
54
100
AcDbEntity
  8
LAYER-2
  6
CONTINUOUS
 62
     8
100
AcDbVertex
100
AcDb2dVertex
 10
-3.472065
 20
4.968261
 30
0.0
 70
     8
  0
VERTEX
  5
55
100
AcDbEntity
  8
LAYER-2
  6
CONTINUOUS
 62
     8
100
AcDbVertex
100
AcDb2dVertex
 10
-3.547071
 20
5.102706
 30
0.0
 70
     8
  0
VERTEX
  5
56
100
AcDbEntity
  8
LAYER-2
  6
CONTINUOUS
 62
     8
100
AcDbVertex
100
AcDb2dVertex
 10
-3.617289
 20
5.238003
 30
0.0
 70
     8
  0
VERTEX
  5
57
100
AcDbEntity
  8
LAYER-2
  6
CONTINUOUS
 62
     8
100
AcDbVertex
100
AcDb2dVertex
 10
-3.682516
 20
5.374187
 30
0.0
 70
     8
  0
VERTEX
  5
58
100
AcDbEntity
  8
LAYER-2
  6
CONTINUOUS
 62
     8
100
AcDbVertex
100
AcDb2dVertex
 10
-3.742546
 20
5.511296
 30
0.0
 70
     8
  0
VERTEX
  5
59
100
AcDbEntity
  8
LAYER-2
  6
CONTINUOUS
 62
     8
100
AcDbVertex
100
AcDb2dVertex
 10
-3.797173
 20
5.649365
 30
0.0
 70
     8
  0
VERTEX
  5
5A
100
AcDbEntity
  8
LAYER-2
  6
CONTINUOUS
 62
     8
100
AcDbVertex
100
AcDb2dVertex
 10
-3.846193
 20
5.788431
 30
0.0
 70
     8
  0
VERTEX
  5
5B
100
AcDbEntity
  8
LAYER-2
  6
CONTINUOUS
 62
     8
100
AcDbVertex
100
AcDb2dVertex
 10
-3.8894
 20
5.928532
 30
0.0
 70
     8
  0
VERTEX
  5
5C
100
AcDbEntity
  8
LAYER-2
  6
CONTINUOUS
 62
     8
100
AcDbVertex
100
AcDb2dVertex
 10
-3.92659
 20
6.069702
 30
0.0
 70
     8
  0
VERTEX
  5
5D
100
AcDbEntity
  8
LAYER-2
  6
CONTINUOUS
 62
     8
100
AcDbVertex
100
AcDb2dVertex
 10
-3.957556
 20
6.211979
 30
0.0
 70
     8
  0
VERTEX
  5
5E
100
AcDbEntity
  8
LAYER-2
  6
CONTINUOUS
 62
     8
100
AcDbVertex
100
AcDb2dVertex
 10
-3.982095
 20
6.3554
 30
0.0
 70
     8
  0
VERTEX
  5
5F
100
AcDbEntity
  8
LAYER-2
  6
CONTINUOUS
 62
     8
100
AcDbVertex
100
AcDb2dVertex
 10
-4.0
 20
6.5
 30
0.0
  0
VERTEX
  5
60
100
AcDbEntity
  8
LAYER-2
  6
CONTINUOUS
 62
     8
100
AcDbVertex
100
AcDb2dVertex
 10
-4.0
 20
6.5
 30
0.0
  0
VERTEX
  5
61
100
AcDbEntity
  8
LAYER-2
  6
CONTINUOUS
 62
     8
100
AcDbVertex
100
AcDb2dVertex
 10
-4.006098
 20
6.593542
 30
0.0
 70
     8
  0
VERTEX
  5
62
100
AcDbEntity
  8
LAYER-2
  6
CONTINUOUS
 62
     8
100
AcDbVertex
100
AcDb2dVertex
 10
-4.005691
 20
6.685952
 30
0.0
 70
     8
  0
VERTEX
  5
63
100
AcDbEntity
  8
LAYER-2
  6
CONTINUOUS
 62
     8
100
AcDbVertex
100
AcDb2dVertex
 10
-3.998966
 20
6.777235
 30
0.0
 70
     8
  0
VERTEX
  5
64
100
AcDbEntity
  8
LAYER-2
  6
CONTINUOUS
 62
     8
100
AcDbVertex
100
AcDb2dVertex
 10
-3.986107
 20
6.8674
 30
0.0
 70
     8
  0
VERTEX
  5
65
100
AcDbEntity
  8
LAYER-2
  6
CONTINUOUS
 62
     8
100
AcDbVertex
100
AcDb2dVertex
 10
-3.967298
 20
6.95645
 30
0.0
 70
     8
  0
VERTEX
  5
66
100
AcDbEntity
  8
LAYER-2
  6
CONTINUOUS
 62
     8
100
AcDbVertex
100
AcDb2dVertex
 10
-3.942724
 20
7.044394
 30
0.0
 70
     8
  0
VERTEX
  5
67
100
AcDbEntity
  8
LAYER-2
  6
CONTINUOUS
 62
     8
100
AcDbVertex
100
AcDb2dVertex
 10
-3.912571
 20
7.131237
 30
0.0
 70
     8
  0
VERTEX
  5
68
100
AcDbEntity
  8
LAYER-2
  6
CONTINUOUS
 62
     8
100
AcDbVertex
100
AcDb2dVertex
 10
-3.877022
 20
7.216985
 30
0.0
 70
     8
  0
VERTEX
  5
69
100
AcDbEntity
  8
LAYER-2
  6
CONTINUOUS
 62
     8
100
AcDbVertex
100
AcDb2dVertex
 10
-3.836263
 20
7.301645
 30
0.0
 70
     8
  0
VERTEX
  5
6A
100
AcDbEntity
  8
LAYER-2
  6
CONTINUOUS
 62
     8
100
AcDbVertex
100
AcDb2dVertex
 10
-3.790478
 20
7.385222
 30
0.0
 70
     8
  0
VERTEX
  5
6B
100
AcDbEntity
  8
LAYER-2
  6
CONTINUOUS
 62
     8
100
AcDbVertex
100
AcDb2dVertex
 10
-3.739853
 20
7.467724
 30
0.0
 70
     8
  0
VERTEX
  5
6C
100
AcDbEntity
  8
LAYER-2
  6
CONTINUOUS
 62
     8
100
AcDbVertex
100
AcDb2dVertex
 10
-3.684571
 20
7.549156
 30
0.0
 70
     8
  0
VERTEX
  5
6D
100
AcDbEntity
  8
LAYER-2
  6
CONTINUOUS
 62
     8
100
AcDbVertex
100
AcDb2dVertex
 10
-3.624818
 20
7.629525
 30
0.0
 70
     8
  0
VERTEX
  5
6E
100
AcDbEntity
  8
LAYER-2
  6
CONTINUOUS
 62
     8
100
AcDbVertex
100
AcDb2dVertex
 10
-3.560778
 20
7.708837
 30
0.0
 70
     8
  0
VERTEX
  5
6F
100
AcDbEntity
  8
LAYER-2
  6
CONTINUOUS
 62
     8
100
AcDbVertex
100
AcDb2dVertex
 10
-3.492636
 20
7.787097
 30
0.0
 70
     8
  0
VERTEX
  5
70
100
AcDbEntity
  8
LAYER-2
  6
CONTINUOUS
 62
     8
100
AcDbVertex
100
AcDb2dVertex
 10
-3.420577
 20
7.864314
 30
0.0
 70
     8
  0
VERTEX
  5
71
100
AcDbEntity
  8
LAYER-2
  6
CONTINUOUS
 62
     8
100
AcDbVertex
100
AcDb2dVertex
 10
-3.344786
 20
7.940491
 30
0.0
 70
     8
  0
VERTEX
  5
72
100
AcDbEntity
  8
LAYER-2
  6
CONTINUOUS
 62
     8
100
AcDbVertex
100
AcDb2dVertex
 10
-3.265447
 20
8.015637
 30
0.0
 70
     8
  0
VERTEX
  5
73
100
AcDbEntity
  8
LAYER-2
  6
CONTINUOUS
 62
     8
100
AcDbVertex
100
AcDb2dVertex
 10
-3.182745
 20
8.089757
 30
0.0
 70
     8
  0
VERTEX
  5
74
100
AcDbEntity
  8
LAYER-2
  6
CONTINUOUS
 62
     8
100
AcDbVertex
100
AcDb2dVertex
 10
-3.096866
 20
8.162858
 30
0.0
 70
     8
  0
VERTEX
  5
75
100
AcDbEntity
  8
LAYER-2
  6
CONTINUOUS
 62
     8
100
AcDbVertex
100
AcDb2dVertex
 10
-3.007992
 20
8.234945
 30
0.0
 70
     8
  0
VERTEX
  5
76
100
AcDbEntity
  8
LAYER-2
  6
CONTINUOUS
 62
     8
100
AcDbVertex
100
AcDb2dVertex
 10
-2.916311
 20
8.306025
 30
0.0
 70
     8
  0
VERTEX
  5
77
100
AcDbEntity
  8
LAYER-2
  6
CONTINUOUS
 62
     8
100
AcDbVertex
100
AcDb2dVertex
 10
-2.822005
 20
8.376104
 30
0.0
 70
     8
  0
VERTEX
  5
78
100
AcDbEntity
  8
LAYER-2
  6
CONTINUOUS
 62
     8
100
AcDbVertex
100
AcDb2dVertex
 10
-2.725261
 20
8.445189
 30
0.0
 70
     8
  0
VERTEX
  5
79
100
AcDbEntity
  8
LAYER-2
  6
CONTINUOUS
 62
     8
100
AcDbVertex
100
AcDb2dVertex
 10
-2.626262
 20
8.513285
 30
0.0
 70
     8
  0
VERTEX
  5
7A
100
AcDbEntity
  8
LAYER-2
  6
CONTINUOUS
 62
     8
100
AcDbVertex
100
AcDb2dVertex
 10
-2.525193
 20
8.580399
 30
0.0
 70
     8
  0
VERTEX
  5
7B
100
AcDbEntity
  8
LAYER-2
  6
CONTINUOUS
 62
     8
100
AcDbVertex
100
AcDb2dVertex
 10
-2.42224
 20
8.646538
 30
0.0
 70
     8
  0
VERTEX
  5
7C
100
AcDbEntity
  8
LAYER-2
  6
CONTINUOUS
 62
     8
100
AcDbVertex
100
AcDb2dVertex
 10
-2.317587
 20
8.711707
 30
0.0
 70
     8
  0
VERTEX
  5
7D
100
AcDbEntity
  8
LAYER-2
  6
CONTINUOUS
 62
     8
100
AcDbVertex
100
AcDb2dVertex
 10
-2.211418
 20
8.775912
 30
0.0
 70
     8
  0
VERTEX
  5
7E
100
AcDbEntity
  8
LAYER-2
  6
CONTINUOUS
 62
     8
100
AcDbVertex
100
AcDb2dVertex
 10
-2.103919
 20
8.839161
 30
0.0
 70
     8
  0
VERTEX
  5
7F
100
AcDbEntity
  8
LAYER-2
  6
CONTINUOUS
 62
     8
100
AcDbVertex
100
AcDb2dVertex
 10
-1.995274
 20
8.901459
 30
0.0
 70
     8
  0
VERTEX
  5
80
100
AcDbEntity
  8
LAYER-2
  6
CONTINUOUS
 62
     8
100
AcDbVertex
100
AcDb2dVertex
 10
-1.885668
 20
8.962812
 30
0.0
 70
     8
  0
VERTEX
  5
81
100
AcDbEntity
  8
LAYER-2
  6
CONTINUOUS
 62
     8
100
AcDbVertex
100
AcDb2dVertex
 10
-1.775286
 20
9.023227
 30
0.0
 70
     8
  0
VERTEX
  5
82
100
AcDbEntity
  8
LAYER-2
  6
CONTINUOUS
 62
     8
100
AcDbVertex
100
AcDb2dVertex
 10
-1.664313
 20
9.082711
 30
0.0
 70
     8
  0
VERTEX
  5
83
100
AcDbEntity
  8
LAYER-2
  6
CONTINUOUS
 62
     8
100
AcDbVertex
100
AcDb2dVertex
 10
-1.552933
 20
9.141268
 30
0.0
 70
     8
  0
VERTEX
  5
84
100
AcDbEntity
  8
LAYER-2
  6
CONTINUOUS
 62
     8
100
AcDbVertex
100
AcDb2dVertex
 10
-1.44133
 20
9.198906
 30
0.0
 70
     8
  0
VERTEX
  5
85
100
AcDbEntity
  8
LAYER-2
  6
CONTINUOUS
 62
     8
100
AcDbVertex
100
AcDb2dVertex
 10
-1.329691
 20
9.25563
 30
0.0
 70
     8
  0
VERTEX
  5
86
100
AcDbEntity
  8
LAYER-2
  6
CONTINUOUS
 62
     8
100
AcDbVertex
100
AcDb2dVertex
 10
-1.218199
 20
9.311448
 30
0.0
 70
     8
  0
VERTEX
  5
87
100
AcDbEntity
  8
LAYER-2
  6
CONTINUOUS
 62
     8
100
AcDbVertex
100
AcDb2dVertex
 10
-1.10704
 20
9.366365
 30
0.0
 70
     8
  0
VERTEX
  5
88
100
AcDbEntity
  8
LAYER-2
  6
CONTINUOUS
 62
     8
100
AcDbVertex
100
AcDb2dVertex
 10
-0.996397
 20
9.420387
 30
0.0
 70
     8
  0
VERTEX
  5
89
100
AcDbEntity
  8
LAYER-2
  6
CONTINUOUS
 62
     8
100
AcDbVertex
100
AcDb2dVertex
 10
-0.886456
 20
9.473522
 30
0.0
 70
     8
  0
VERTEX
  5
8A
100
AcDbEntity
  8
LAYER-2
  6
CONTINUOUS
 62
     8
100
AcDbVertex
100
AcDb2dVertex
 10
-0.777402
 20
9.525774
 30
0.0
 70
     8
  0
VERTEX
  5
8B
100
AcDbEntity
  8
LAYER-2
  6
CONTINUOUS
 62
     8
100
AcDbVertex
100
AcDb2dVertex
 10
-0.66942
 20
9.57715
 30
0.0
 70
     8
  0
VERTEX
  5
8C
100
AcDbEntity
  8
LAYER-2
  6
CONTINUOUS
 62
     8
100
AcDbVertex
100
AcDb2dVertex
 10
-0.562693
 20
9.627657
 30
0.0
 70
     8
  0
VERTEX
  5
8D
100
AcDbEntity
  8
LAYER-2
  6
CONTINUOUS
 62
     8
100
AcDbVertex
100
AcDb2dVertex
 10
-0.457407
 20
9.677301
 30
0.0
 70
     8
  0
VERTEX
  5
8E
100
AcDbEntity
  8
LAYER-2
  6
CONTINUOUS
 62
     8
100
AcDbVertex
100
AcDb2dVertex
 10
-0.353747
 20
9.726088
 30
0.0
 70
     8
  0
VERTEX
  5
8F
100
AcDbEntity
  8
LAYER-2
  6
CONTINUOUS
 62
     8
100
AcDbVertex
100
AcDb2dVertex
 10
-0.251897
 20
9.774024
 30
0.0
 70
     8
  0
VERTEX
  5
90
100
AcDbEntity
  8
LAYER-2
  6
CONTINUOUS
 62
     8
100
AcDbVertex
100
AcDb2dVertex
 10
-0.152042
 20
9.821116
 30
0.0
 70
     8
  0
VERTEX
  5
91
100
AcDbEntity
  8
LAYER-2
  6
CONTINUOUS
 62
     8
100
AcDbVertex
100
AcDb2dVertex
 10
-0.054367
 20
9.86737
 30
0.0
 70
     8
  0
VERTEX
  5
92
100
AcDbEntity
  8
LAYER-2
  6
CONTINUOUS
 62
     8
100
AcDbVertex
100
AcDb2dVertex
 10
0.040943
 20
9.912791
 30
0.0
  0
VERTEX
  5
93
100
AcDbEntity
  8
LAYER-2
  6
CONTINUOUS
 62
     8
100
AcDbVertex
100
AcDb2dVertex
 10
0.040943
 20
9.912791
 30
0.0
  0
VERTEX
  5
94
100
AcDbEntity
  8
LAYER-2
  6
CONTINUOUS
 62
     8
100
AcDbVertex
100
AcDb2dVertex
 10
0.111103
 20
9.946349
 30
0.0
 70
     8
  0
VERTEX
  5
95
100
AcDbEntity
  8
LAYER-2
  6
CONTINUOUS
 62
     8
100
AcDbVertex
100
AcDb2dVertex
 10
0.181152
 20
9.979828
 30
0.0
 70
     8
  0
VERTEX
  5
96
100
AcDbEntity
  8
LAYER-2
  6
CONTINUOUS
 62
     8
100
AcDbVertex
100
AcDb2dVertex
 10
0.251094
 20
10.01323
 30
0.0
 70
     8
  0
VERTEX
  5
97
100
AcDbEntity
  8
LAYER-2
  6
CONTINUOUS
 62
     8
100
AcDbVertex
100
AcDb2dVertex
 10
0.320934
 20
10.046554
 30
0.0
 70
     8
  0
VERTEX
  5
98
100
AcDbEntity
  8
LAYER-2
  6
CONTINUOUS
 62
     8
100
AcDbVertex
100
AcDb2dVertex
 10
0.390676
 20
10.0798
 30
0.0
 70
     8
  0
VERTEX
  5
99
100
AcDbEntity
  8
LAYER-2
  6
CONTINUOUS
 62
     8
100
AcDbVertex
100
AcDb2dVertex
 10
0.460325
 20
10.112969
 30
0.0
 70
     8
  0
VERTEX
  5
9A
100
AcDbEntity
  8
LAYER-2
  6
CONTINUOUS
 62
     8
100
AcDbVertex
100
AcDb2dVertex
 10
0.529884
 20
10.146062
 30
0.0
 70
     8
  0
VERTEX
  5
9B
100
AcDbEntity
  8
LAYER-2
  6
CONTINUOUS
 62
     8
100
AcDbVertex
100
AcDb2dVertex
 10
0.59936
 20
10.179077
 30
0.0
 70
     8
  0
VERTEX
  5
9C
100
AcDbEntity
  8
LAYER-2
  6
CONTINUOUS
 62
     8
100
AcDbVertex
100
AcDb2dVertex
 10
0.668755
 20
10.212017
 30
0.0
 70
     8
  0
VERTEX
  5
9D
100
AcDbEntity
  8
LAYER-2
  6
CONTINUOUS
 62
     8
100
AcDbVertex
100
AcDb2dVertex
 10
0.738075
 20
10.24488
 30
0.0
 70
     8
  0
VERTEX
  5
9E
100
AcDbEntity
  8
LAYER-2
  6
CONTINUOUS
 62
     8
100
AcDbVertex
100
AcDb2dVertex
 10
0.807323
 20
10.277668
 30
0.0
 70
     8
  0
VERTEX
  5
9F
100
AcDbEntity
  8
LAYER-2
  6
CONTINUOUS
 62
     8
100
AcDbVertex
100
AcDb2dVertex
 10
0.876505
 20
10.31038
 30
0.0
 70
     8
  0
VERTEX
  5
A0
100
AcDbEntity
  8
LAYER-2
  6
CONTINUOUS
 62
     8
100
AcDbVertex
100
AcDb2dVertex
 10
0.945625
 20
10.343016
 30
0.0
 70
     8
  0
VERTEX
  5
A1
100
AcDbEntity
  8
LAYER-2
  6
CONTINUOUS
 62
     8
100
AcDbVertex
100
AcDb2dVertex
 10
1.014687
 20
10.375578
 30
0.0
 70
     8
  0
VERTEX
  5
A2
100
AcDbEntity
  8
LAYER-2
  6
CONTINUOUS
 62
     8
100
AcDbVertex
100
AcDb2dVertex
 10
1.083695
 20
10.408064
 30
0.0
 70
     8
  0
VERTEX
  5
A3
100
AcDbEntity
  8
LAYER-2
  6
CONTINUOUS
 62
     8
100
AcDbVertex
100
AcDb2dVertex
 10
1.152655
 20
10.440477
 30
0.0
 70
     8
  0
VERTEX
  5
A4
100
AcDbEntity
  8
LAYER-2
  6
CONTINUOUS
 62
     8
100
AcDbVertex
100
AcDb2dVertex
 10
1.22157
 20
10.472815
 30
0.0
 70
     8
  0
VERTEX
  5
A5
100
AcDbEntity
  8
LAYER-2
  6
CONTINUOUS
 62
     8
100
AcDbVertex
100
AcDb2dVertex
 10
1.290446
 20
10.505078
 30
0.0
 70
     8
  0
VERTEX
  5
A6
100
AcDbEntity
  8
LAYER-2
  6
CONTINUOUS
 62
     8
100
AcDbVertex
100
AcDb2dVertex
 10
1.359286
 20
10.537269
 30
0.0
 70
     8
  0
VERTEX
  5
A7
100
AcDbEntity
  8
LAYER-2
  6
CONTINUOUS
 62
     8
100
AcDbVertex
100
AcDb2dVertex
 10
1.428095
 20
10.569385
 30
0.0
 70
     8
  0
VERTEX
  5
A8
100
AcDbEntity
  8
LAYER-2
  6
CONTINUOUS
 62
     8
100
AcDbVertex
100
AcDb2dVertex
 10
1.496877
 20
10.601429
 30
0.0
 70
     8
  0
VERTEX
  5
A9
100
AcDbEntity
  8
LAYER-2
  6
CONTINUOUS
 62
     8
100
AcDbVertex
100
AcDb2dVertex
 10
1.565637
 20
10.633399
 30
0.0
 70
     8
  0
VERTEX
  5
AA
100
AcDbEntity
  8
LAYER-2
  6
CONTINUOUS
 62
     8
100
AcDbVertex
100
AcDb2dVertex
 10
1.634379
 20
10.665297
 30
0.0
 70
     8
  0
VERTEX
  5
AB
100
AcDbEntity
  8
LAYER-2
  6
CONTINUOUS
 62
     8
100
AcDbVertex
100
AcDb2dVertex
 10
1.703108
 20
10.697122
 30
0.0
 70
     8
  0
VERTEX
  5
AC
100
AcDbEntity
  8
LAYER-2
  6
CONTINUOUS
 62
     8
100
AcDbVertex
100
AcDb2dVertex
 10
1.771829
 20
10.728875
 30
0.0
 70
     8
  0
VERTEX
  5
AD
100
AcDbEntity
  8
LAYER-2
  6
CONTINUOUS
 62
     8
100
AcDbVertex
100
AcDb2dVertex
 10
1.840545
 20
10.760556
 30
0.0
 70
     8
  0
VERTEX
  5
AE
100
AcDbEntity
  8
LAYER-2
  6
CONTINUOUS
 62
     8
100
AcDbVertex
100
AcDb2dVertex
 10
1.909261
 20
10.792166
 30
0.0
 70
     8
  0
VERTEX
  5
AF
100
AcDbEntity
  8
LAYER-2
  6
CONTINUOUS
 62
     8
100
AcDbVertex
100
AcDb2dVertex
 10
1.977982
 20
10.823704
 30
0.0
 70
     8
  0
VERTEX
  5
B0
100
AcDbEntity
  8
LAYER-2
  6
CONTINUOUS
 62
     8
100
AcDbVertex
100
AcDb2dVertex
 10
2.046711
 20
10.855171
 30
0.0
 70
     8
  0
VERTEX
  5
B1
100
AcDbEntity
  8
LAYER-2
  6
CONTINUOUS
 62
     8
100
AcDbVertex
100
AcDb2dVertex
 10
2.115454
 20
10.886567
 30
0.0
 70
     8
  0
VERTEX
  5
B2
100
AcDbEntity
  8
LAYER-2
  6
CONTINUOUS
 62
     8
100
AcDbVertex
100
AcDb2dVertex
 10
2.184215
 20
10.917892
 30
0.0
 70
     8
  0
VERTEX
  5
B3
100
AcDbEntity
  8
LAYER-2
  6
CONTINUOUS
 62
     8
100
AcDbVertex
100
AcDb2dVertex
 10
2.252999
 20
10.949147
 30
0.0
 70
     8
  0
VERTEX
  5
B4
100
AcDbEntity
  8
LAYER-2
  6
CONTINUOUS
 62
     8
100
AcDbVertex
100
AcDb2dVertex
 10
2.321809
 20
10.980332
 30
0.0
 70
     8
  0
VERTEX
  5
B5
100
AcDbEntity
  8
LAYER-2
  6
CONTINUOUS
 62
     8
100
AcDbVertex
100
AcDb2dVertex
 10
2.390651
 20
11.011447
 30
0.0
 70
     8
  0
VERTEX
  5
B6
100
AcDbEntity
  8
LAYER-2
  6
CONTINUOUS
 62
     8
100
AcDbVertex
100
AcDb2dVertex
 10
2.459528
 20
11.042493
 30
0.0
 70
     8
  0
VERTEX
  5
B7
100
AcDbEntity
  8
LAYER-2
  6
CONTINUOUS
 62
     8
100
AcDbVertex
100
AcDb2dVertex
 10
2.528445
 20
11.073469
 30
0.0
 70
     8
  0
VERTEX
  5
B8
100
AcDbEntity
  8
LAYER-2
  6
CONTINUOUS
 62
     8
100
AcDbVertex
100
AcDb2dVertex
 10
2.597407
 20
11.104376
 30
0.0
 70
     8
  0
VERTEX
  5
B9
100
AcDbEntity
  8
LAYER-2
  6
CONTINUOUS
 62
     8
100
AcDbVertex
100
AcDb2dVertex
 10
2.666418
 20
11.135214
 30
0.0
 70
     8
  0
VERTEX
  5
BA
100
AcDbEntity
  8
LAYER-2
  6
CONTINUOUS
 62
     8
100
AcDbVertex
100
AcDb2dVertex
 10
2.735483
 20
11.165984
 30
0.0
 70
     8
  0
VERTEX
  5
BB
100
AcDbEntity
  8
LAYER-2
  6
CONTINUOUS
 62
     8
100
AcDbVertex
100
AcDb2dVertex
 10
2.804606
 20
11.196685
 30
0.0
 70
     8
  0
VERTEX
  5
BC
100
AcDbEntity
  8
LAYER-2
  6
CONTINUOUS
 62
     8
100
AcDbVertex
100
AcDb2dVertex
 10
2.873791
 20
11.227318
 30
0.0
 70
     8
  0
VERTEX
  5
BD
100
AcDbEntity
  8
LAYER-2
  6
CONTINUOUS
 62
     8
100
AcDbVertex
100
AcDb2dVertex
 10
2.943043
 20
11.257884
 30
0.0
 70
     8
  0
VERTEX
  5
BE
100
AcDbEntity
  8
LAYER-2
  6
CONTINUOUS
 62
     8
100
AcDbVertex
100
AcDb2dVertex
 10
3.012366
 20
11.288382
 30
0.0
 70
     8
  0
VERTEX
  5
BF
100
AcDbEntity
  8
LAYER-2
  6
CONTINUOUS
 62
     8
100
AcDbVertex
100
AcDb2dVertex
 10
3.081765
 20
11.318813
 30
0.0
 70
     8
  0
VERTEX
  5
C0
100
AcDbEntity
  8
LAYER-2
  6
CONTINUOUS
 62
     8
100
AcDbVertex
100
AcDb2dVertex
 10
3.151244
 20
11.349177
 30
0.0
 70
     8
  0
VERTEX
  5
C1
100
AcDbEntity
  8
LAYER-2
  6
CONTINUOUS
 62
     8
100
AcDbVertex
100
AcDb2dVertex
 10
3.220808
 20
11.379474
 30
0.0
 70
     8
  0
VERTEX
  5
C2
100
AcDbEntity
  8
LAYER-2
  6
CONTINUOUS
 62
     8
100
AcDbVertex
100
AcDb2dVertex
 10
3.290461
 20
11.409704
 30
0.0
 70
     8
  0
VERTEX
  5
C3
100
AcDbEntity
  8
LAYER-2
  6
CONTINUOUS
 62
     8
100
AcDbVertex
100
AcDb2dVertex
 10
3.360208
 20
11.439869
 30
0.0
 70
     8
  0
VERTEX
  5
C4
100
AcDbEntity
  8
LAYER-2
  6
CONTINUOUS
 62
     8
100
AcDbVertex
100
AcDb2dVertex
 10
3.430053
 20
11.469967
 30
0.0
 70
     8
  0
VERTEX
  5
C5
100
AcDbEntity
  8
LAYER-2
  6
CONTINUOUS
 62
     8
100
AcDbVertex
100
AcDb2dVertex
 10
3.5
 20
11.5
 30
0.0
  0
SEQEND
  5
C6
100
AcDbEntity
  8
LAYER-2
  6
CONTINUOUS
 62
     8
  0
POLYLINE
  5
C7
100
AcDbEntity
  8
LAYER-2
  6
CONTINUOUS
 62
     8
100
AcDb2dPolyline
 66
     1
 10
0.0
 20
0.0
 30
0.0
 70
   133
  0
VERTEX
  5
C8
100
AcDbEntity
  8
LAYER-2
  6
CONTINUOUS
 62
     8
100
AcDbVertex
100
AcDb2dVertex
 10
1.0
 20
6.0
 30
0.0
  0
VERTEX
  5
C9
100
AcDbEntity
  8
LAYER-2
  6
CONTINUOUS
 62
     8
100
AcDbVertex
100
AcDb2dVertex
 10
1.125333
 20
6.009857
 30
0.0
 70
     8
  0
VERTEX
  5
CA
100
AcDbEntity
  8
LAYER-2
  6
CONTINUOUS
 62
     8
100
AcDbVertex
100
AcDb2dVertex
 10
1.24869
 20
6.039271
 30
0.0
 70
     8
  0
VERTEX
  5
CB
100
AcDbEntity
  8
LAYER-2
  6
CONTINUOUS
 62
     8
100
AcDbVertex
100
AcDb2dVertex
 10
1.368125
 20
6.087779
 30
0.0
 70
     8
  0
VERTEX
  5
CC
100
AcDbEntity
  8
LAYER-2
  6
CONTINUOUS
 62
     8
100
AcDbVertex
100
AcDb2dVertex
 10
1.481754
 20
6.154617
 30
0.0
 70
     8
  0
VERTEX
  5
CD
100
AcDbEntity
  8
LAYER-2
  6
CONTINUOUS
 62
     8
100
AcDbVertex
100
AcDb2dVertex
 10
1.587785
 20
6.238729
 30
0.0
 70
     8
  0
VERTEX
  5
CE
100
AcDbEntity
  8
LAYER-2
  6
CONTINUOUS
 62
     8
100
AcDbVertex
100
AcDb2dVertex
 10
1.684547
 20
6.338789
 30
0.0
 70
     8
  0
VERTEX
  5
CF
100
AcDbEntity
  8
LAYER-2
  6
CONTINUOUS
 62
     8
100
AcDbVertex
100
AcDb2dVertex
 10
1.770513
 20
6.45322
 30
0.0
 70
     8
  0
VERTEX
  5
D0
100
AcDbEntity
  8
LAYER-2
  6
CONTINUOUS
 62
     8
100
AcDbVertex
100
AcDb2dVertex
 10
1.844328
 20
6.580217
 30
0.0
 70
     8
  0
VERTEX
  5
D1
100
AcDbEntity
  8
LAYER-2
  6
CONTINUOUS
 62
     8
100
AcDbVertex
100
AcDb2dVertex
 10
1.904827
 20
6.717776
 30
0.0
 70
     8
  0
VERTEX
  5
D2
100
AcDbEntity
  8
LAYER-2
  6
CONTINUOUS
 62
     8
100
AcDbVertex
100
AcDb2dVertex
 10
1.951057
 20
6.863729
 30
0.0
 70
     8
  0
VERTEX
  5
D3
100
AcDbEntity
  8
LAYER-2
  6
CONTINUOUS
 62
     8
100
AcDbVertex
100
AcDb2dVertex
 10
1.982287
 20
7.015773
 30
0.0
 70
     8
  0
VERTEX
  5
D4
100
AcDbEntity
  8
LAYER-2
  6
CONTINUOUS
 62
     8
100
AcDbVertex
100
AcDb2dVertex
 10
1.998027
 20
7.171512
 30
0.0
 70
     8
  0
VERTEX
  5
D5
100
AcDbEntity
  8
LAYER-2
  6
CONTINUOUS
 62
     8
100
AcDbVertex
100
AcDb2dVertex
 10
1.998027
 20
7.328488
 30
0.0
 70
     8
  0
VERTEX
  5
D6
100
AcDbEntity
  8
LAYER-2
  6
CONTINUOUS
 62
     8
100
AcDbVertex
100
AcDb2dVertex
 10
1.982287
 20
7.484227
 30
0.0
 70
     8
  0
VERTEX
  5
D7
100
AcDbEntity
  8
LAYER-2
  6
CONTINUOUS
 62
     8
100
AcDbVertex
100
AcDb2dVertex
 10
1.951057
 20
7.636271
 30
0.0
 70
     8
  0
VERTEX
  5
D8
100
AcDbEntity
  8
LAYER-2
  6
CONTINUOUS
 62
     8
100
AcDbVertex
100
AcDb2dVertex
 10
1.904827
 20
7.782224
 30
0.0
 70
     8
  0
VERTEX
  5
D9
100
AcDbEntity
  8
LAYER-2
  6
CONTINUOUS
 62
     8
100
AcDbVertex
100
AcDb2dVertex
 10
1.844328
 20
7.919783
 30
0.0
 70
     8
  0
VERTEX
  5
DA
100
AcDbEntity
  8
LAYER-2
  6
CONTINUOUS
 62
     8
100
AcDbVertex
100
AcDb2dVertex
 10
1.770513
 20
8.04678
 30
0.0
 70
     8
  0
VERTEX
  5
DB
100
AcDbEntity
  8
LAYER-2
  6
CONTINUOUS
 62
     8
100
AcDbVertex
100
AcDb2dVertex
 10
1.684547
 20
8.161211
 30
0.0
 70
     8
  0
VERTEX
  5
DC
100
AcDbEntity
  8
LAYER-2
  6
CONTINUOUS
 62
     8
100
AcDbVertex
100
AcDb2dVertex
 10
1.587785
 20
8.261271
 30
0.0
 70
     8
  0
VERTEX
  5
DD
100
AcDbEntity
  8
LAYER-2
  6
CONTINUOUS
 62
     8
100
AcDbVertex
100
AcDb2dVertex
 10
1.481754
 20
8.345383
 30
0.0
 70
     8
  0
VERTEX
  5
DE
100
AcDbEntity
  8
LAYER-2
  6
CONTINUOUS
 62
     8
100
AcDbVertex
100
AcDb2dVertex
 10
1.368125
 20
8.412221
 30
0.0
 70
     8
  0
VERTEX
  5
DF
100
AcDbEntity
  8
LAYER-2
  6
CONTINUOUS
 62
     8
100
AcDbVertex
100
AcDb2dVertex
 10
1.24869
 20
8.460729
 30
0.0
 70
     8
  0
VERTEX
  5
E0
100
AcDbEntity
  8
LAYER-2
  6
CONTINUOUS
 62
     8
100
AcDbVertex
100
AcDb2dVertex
 10
1.125333
 20
8.490143
 30
0.0
 70
     8
  0
VERTEX
  5
E1
100
AcDbEntity
  8
LAYER-2
  6
CONTINUOUS
 62
     8
100
AcDbVertex
100
AcDb2dVertex
 10
1.0
 20
8.5
 30
0.0
 70
     8
  0
VERTEX
  5
E2
100
AcDbEntity
  8
LAYER-2
  6
CONTINUOUS
 62
     8
100
AcDbVertex
100
AcDb2dVertex
 10
0.874667
 20
8.490143
 30
0.0
 70
     8
  0
VERTEX
  5
E3
100
AcDbEntity
  8
LAYER-2
  6
CONTINUOUS
 62
     8
100
AcDbVertex
100
AcDb2dVertex
 10
0.75131
 20
8.460729
 30
0.0
 70
     8
  0
VERTEX
  5
E4
100
AcDbEntity
  8
LAYER-2
  6
CONTINUOUS
 62
     8
100
AcDbVertex
100
AcDb2dVertex
 10
0.631875
 20
8.412221
 30
0.0
 70
     8
  0
VERTEX
  5
E5
100
AcDbEntity
  8
LAYER-2
  6
CONTINUOUS
 62
     8
100
AcDbVertex
100
AcDb2dVertex
 10
0.518246
 20
8.345383
 30
0.0
 70
     8
  0
VERTEX
  5
E6
100
AcDbEntity
  8
LAYER-2
  6
CONTINUOUS
 62
     8
100
AcDbVertex
100
AcDb2dVertex
 10
0.412215
 20
8.261271
 30
0.0
 70
     8
  0
VERTEX
  5
E7
100
AcDbEntity
  8
LAYER-2
  6
CONTINUOUS
 62
     8
100
AcDbVertex
100
AcDb2dVertex
 10
0.315453
 20
8.161211
 30
0.0
 70
     8
  0
VERTEX
  5
E8
100
AcDbEntity
  8
LAYER-2
  6
CONTINUOUS
 62
     8
100
AcDbVertex
100
AcDb2dVertex
 10
0.229487
 20
8.04678
 30
0.0
 70
     8
  0
VERTEX
  5
E9
100
AcDbEntity
  8
LAYER-2
  6
CONTINUOUS
 62
     8
100
AcDbVertex
100
AcDb2dVertex
 10
0.155672
 20
7.919783
 30
0.0
 70
     8
  0
VERTEX
  5
EA
100
AcDbEntity
  8
LAYER-2
  6
CONTINUOUS
 62
     8
100
AcDbVertex
100
AcDb2dVertex
 10
0.095173
 20
7.782224
 30
0.0
 70
     8
  0
VERTEX
  5
EB
100
AcDbEntity
  8
LAYER-2
  6
CONTINUOUS
 62
     8
100
AcDbVertex
100
AcDb2dVertex
 10
0.048943
 20
7.636271
 30
0.0
 70
     8
  0
VERTEX
  5
EC
100
AcDbEntity
  8
LAYER-2
  6
CONTINUOUS
 62
     8
100
AcDbVertex
100
AcDb2dVertex
 10
0.017713
 20
7.484227
 30
0.0
 70
     8
  0
VERTEX
  5
ED
100
AcDbEntity
  8
LAYER-2
  6
CONTINUOUS
 62
     8
100
AcDbVertex
100
AcDb2dVertex
 10
0.001973
 20
7.328488
 30
0.0
 70
     8
  0
VERTEX
  5
EE
100
AcDbEntity
  8
LAYER-2
  6
CONTINUOUS
 62
     8
100
AcDbVertex
100
AcDb2dVertex
 10
0.001973
 20
7.171512
 30
0.0
 70
     8
  0
VERTEX
  5
EF
100
AcDbEntity
  8
LAYER-2
  6
CONTINUOUS
 62
     8
100
AcDbVertex
100
AcDb2dVertex
 10
0.017713
 20
7.015773
 30
0.0
 70
     8
  0
VERTEX
  5
F0
100
AcDbEntity
  8
LAYER-2
  6
CONTINUOUS
 62
     8
100
AcDbVertex
100
AcDb2dVertex
 10
0.048943
 20
6.863729
 30
0.0
 70
     8
  0
VERTEX
  5
F1
100
AcDbEntity
  8
LAYER-2
  6
CONTINUOUS
 62
     8
100
AcDbVertex
100
AcDb2dVertex
 10
0.095173
 20
6.717776
 30
0.0
 70
     8
  0
VERTEX
  5
F2
100
AcDbEntity
  8
LAYER-2
  6
CONTINUOUS
 62
     8
100
AcDbVertex
100
AcDb2dVertex
 10
0.155672
 20
6.580217
 30
0.0
 70
     8
  0
VERTEX
  5
F3
100
AcDbEntity
  8
LAYER-2
  6
CONTINUOUS
 62
     8
100
AcDbVertex
100
AcDb2dVertex
 10
0.229487
 20
6.45322
 30
0.0
 70
     8
  0
VERTEX
  5
F4
100
AcDbEntity
  8
LAYER-2
  6
CONTINUOUS
 62
     8
100
AcDbVertex
100
AcDb2dVertex
 10
0.315453
 20
6.338789
 30
0.0
 70
     8
  0
VERTEX
  5
F5
100
AcDbEntity
  8
LAYER-2
  6
CONTINUOUS
 62
     8
100
AcDbVertex
100
AcDb2dVertex
 10
0.412215
 20
6.238729
 30
0.0
 70
     8
  0
VERTEX
  5
F6
100
AcDbEntity
  8
LAYER-2
  6
CONTINUOUS
 62
     8
100
AcDbVertex
100
AcDb2dVertex
 10
0.518246
 20
6.154617
 30
0.0
 70
     8
  0
VERTEX
  5
F7
100
AcDbEntity
  8
LAYER-2
  6
CONTINUOUS
 62
     8
100
AcDbVertex
100
AcDb2dVertex
 10
0.631875
 20
6.087779
 30
0.0
 70
     8
  0
VERTEX
  5
F8
100
AcDbEntity
  8
LAYER-2
  6
CONTINUOUS
 62
     8
100
AcDbVertex
100
AcDb2dVertex
 10
0.75131
 20
6.039271
 30
0.0
 70
     8
  0
VERTEX
  5
F9
100
AcDbEntity
  8
LAYER-2
  6
CONTINUOUS
 62
     8
100
AcDbVertex
100
AcDb2dVertex
 10
0.874667
 20
6.009857
 30
0.0
 70
     8
  0
VERTEX
  5
FA
100
AcDbEntity
  8
LAYER-2
  6
CONTINUOUS
 62
     8
100
AcDbVertex
100
AcDb2dVertex
 10
1.0
 20
6.0
 30
0.0
  0
SEQEND
  5
FB
100
AcDbEntity
  8
LAYER-2
  6
CONTINUOUS
 62
     8
  0
ARC
  5
FC
100
AcDbEntity
  8
LAYER-0
  6
CONTINUOUS
 62
    12
100
AcDbCircle
 10
1.083333
 20
7.25
 30
0.0
 40
2.083333
100
AcDbArc
 50
106.260205
 51
253.739795
  0
ARC
  5
FD
100
AcDbEntity
  8
LAYER-0
  6
CONTINUOUS
 62
    12
100
AcDbCircle
 10
0.75
 20
4.072967
 30
0.0
 40
1.0
100
AcDbArc
 50
0.0
 51
68.198591
  0
LINE
  5
FE
100
AcDbEntity
  8
LAYER-0
  6
CONTINUOUS
 62
    12
100
AcDbLine
 10
0.5
 20
5.25
 30
0.0
 11
1.121391
 21
5.001444
 31
0.0
  0
ARC
  5
FF
100
AcDbEntity
  8
LAYER-0
  6
CONTINUOUS
 62
    12
100
AcDbCircle
 10
0.75
 20
10.427033
 30
0.0
 40
1.0
100
AcDbArc
 50
291.801409
 51
360.0
  0
LINE
  5
100
100
AcDbEntity
  8
LAYER-0
  6
CONTINUOUS
 62
    12
100
AcDbLine
 10
0.5
 20
9.25
 30
0.0
 11
1.121391
 21
9.498556
 31
0.0
  0
INSERT
  5
101
100
AcDbEntity
  8
LAYER-0
  6
CONTINUOUS
 62
    12
100
AcDbBlockReference
  2
TARGET
 10
-0.5
 20
0.5
 30
0.0
 41
0.25
 42
0.25
  0
INSERT
  5
102
100
AcDbEntity
  8
LAYER-0
  6
CONTINUOUS
 62
    12
100
AcDbBlockReference
  2
TARGET
 10
-1.75
 20
7.75
 30
0.0
 41
0.25
 42
0.25
  0
LINE
  5
103
100
AcDbEntity
  8
LAYER-2
  6
CONTINUOUS
 62
     8
100
AcDbLine
 10
0.0
 20
0.0
 30
0.0
 11
1.75
 21
0.0
 31
0.0
  0
ARC
  5
104
100
AcDbEntity
  8
LAYER-0
  6
CONTINUOUS
 62
    12
100
AcDbCircle
 10
0.75
 20
0.308416
 30
0.0
 40
1.0
100
AcDbArc
 50
282.094757
 51
360.0
  0
LINE
  5
105
100
AcDbEntity
  8
LAYER-0
  6
CONTINUOUS
 62
    12
100
AcDbLine
 10
1.75
 20
4.072967
 30
0.0
 11
1.75
 21
0.308416
 31
0.0
  0
ARC
  5
106
100
AcDbEntity
  8
LAYER-0
  6
CONTINUOUS
 62
    12
100
AcDbCircle
 10
-4.25
 20
-0.763013
 30
0.0
 40
1.0
100
AcDbArc
 50
180.0
 51
282.094757
  0
LINE
  5
107
100
AcDbEntity
  8
LAYER-0
  6
CONTINUOUS
 62
    12
100
AcDbLine
 10
0.959529
 20
-0.669387
 30
0.0
 11
-4.040471
 21
-1.740815
 31
0.0
  0
ARC
  5
108
100
AcDbEntity
  8
LAYER-0
  6
CONTINUOUS
 62
    12
100
AcDbCircle
 10
1.25
 20
11.706628
 30
0.0
 40
0.5
100
AcDbArc
 50
0.0
 51
115.559965
  0
LINE
  5
109
100
AcDbEntity
  8
LAYER-0
  6
CONTINUOUS
 62
    12
100
AcDbLine
 10
1.75
 20
10.427033
 30
0.0
 11
1.75
 21
11.706628
 31
0.0
  0
ARC
  5
10A
100
AcDbEntity
  8
LAYER-0
  6
CONTINUOUS
 62
    12
100
AcDbCircle
 10
-3.25
 20
6.35
 30
0.0
 40
2.0
100
AcDbArc
 50
157.380135
 51
180.0
  0
LINE
  5
10B
100
AcDbEntity
  8
LAYER-0
  6
CONTINUOUS
 62
    12
100
AcDbLine
 10
-5.25
 20
-0.763013
 30
0.0
 11
-5.25
 21
6.35
 31
0.0
  0
ARC
  5
10C
100
AcDbEntity
  8
LAYER-0
  6
CONTINUOUS
 62
    12
100
AcDbCircle
 10
-2.447742
 20
8.275419
 30
0.0
 40
2.0
100
AcDbArc
 50
115.559965
 51
157.380135
  0
LINE
  5
10D
100
AcDbEntity
  8
LAYER-0
  6
CONTINUOUS
 62
    12
100
AcDbLine
 10
-5.096154
 20
7.119231
 30
0.0
 11
-4.293896
 21
9.04465
 31
0.0
  0
LINE
  5
10E
100
AcDbEntity
  8
LAYER-0
  6
CONTINUOUS
 62
    12
100
AcDbLine
 10
1.034272
 20
12.157695
 30
0.0
 11
-3.310653
 21
10.079688
 31
0.0
  0
DIMENSION
  5
10F
100
AcDbEntity
  8
LAYER-0
  6
CONTINUOUS
 62
    12
100
AcDbDimension
  2
*D2
 10
-1.25
 20
0.5
 30
0.0
 11
-1.25
 21
0.5
 31
0.0
 70
     1
  3
VCADD_DIMSTYLE
100
AcDbAlignedDimension
 13
-1.25
 23
7.75
 33
0.0
 14
-1.25
 24
0.5
 34
0.0
  0
ENDSEC
  0
SECTION
  2
OBJECTS
  0
DICTIONARY
  5
19
100
AcDbDictionary
  3
ACAD_GROUP
350
1A
  3
ACAD_MLINESTYLE
350
1B
  0
DICTIONARY
  5
1A
102
{ACAD_REACTORS
330
19
102
}
100
AcDbDictionary
  0
DICTIONARY
  5
1B
102
{ACAD_REACTORS
330
19
102
}
100
AcDbDictionary
  3
STANDARD
350
1C
  0
MLINESTYLE
  5
1C
102
{ACAD_REACTORS
330
1B
102
}
100
AcDbMlineStyle
  2
STANDARD
 70
     0
  3

 62
     0
 51
90.0
 52
90.0
 71
     2
 49
0.5
 62
   256
  6
BYLAYER
 49
-0.5
 62
   256
  6
BYLAYER
  0
ENDSEC
  0
EOF
